Jenny Soonjin Kim - Doles: 6 Keyboard Sonatas (2018) [Official Digital Download]

Posted By: SERTiL
Jenny Soonjin Kim - Doles: 6 Keyboard Sonatas (2018) [Official Digital Download]

Jenny Soonjin Kim - Doles: 6 Keyboard Sonatas (2018)
FLAC (tracks) 24-bit/44.1 kHz | Time - 58:30 minutes | 538 MB
Studio Master, Official Digital Download | Artwork: Digital Booklet

This is the first recording of Doles’ complete 6 keyboard sonatas, brilliantly played by Jenny Kim on a period instrument, a fortepiano after Walter, built by Michael Walker. Jenny Kim is also recording a complete cycle of Sonatas by Kozeluch for Brilliant Classics, she pairs a thorough historical knowledge to an infectious musicality and “Spielfreude”.

A world premiere recording of stylish, ‘galant’ keyboard sonatas by a contemporary of CPE Bach.

The six keyboard sonatas played here by Jenny Soonjin Kim are the only known instrumental works by the German composer Johann Friedrich Doles, Jr., as well as the only compositions of his ever to be published. Born in Freiberg near Dresden in 1746, Doles was a musical prodigy who studied and then practised law in Leipzig. His father was Cantor at the Thomaskirche following the death of Bach’s successor, and there is a recorded meeting between Doles father and son and Mozart, during the latter’s visit to Leipzig in 1789. Doles Jr. himself died in 1796, five years after Mozart, and a year before his father, leaving extant only these sonatas and three vocal pieces.

The set of six sonatas shares the fashionable galant style of the period, brought to fulfilment by the most musically innovative of Bach’s sons, Carl Philipp Emanuel. Four of the six sonatas are cast in minor keys, and their movements are brief and vivid in character, including exuberant minuets, flamboyant scherzos, lightning- quick finales and even a quirky ‘polacca’ of the kind that JS Bach composed in his First Brandenburg Concerto.

This is Jenny Soonjin Kim’s third recording for Brilliant Classics, following two well- received albums of keyboard sonatas by another little-known contemporary of Mozart, Leopold Koželuch. Volume 1 of the series (94770BR) is ‘an inspired and inspiring collection,’ according to the All About Jazz reviewer: ‘Pianist Jenny Soonjin Kim plays with an almost Baroque flair well-fitting of the music… The period treatment that Kim brings to the Koželuch sonatas gives them a crisp texture and very nearly tactile character… Kim's performance is commanding and authoritative. The sonics are superb.’

Tracklist:
1. Keyboard Sonata I: I. Allegro con brio 04:45
2. Keyboard Sonata I: II. Adagio con espressione 04:10
3. Keyboard Sonata I: III. Scherzando prestissimo 01:23
4. Keyboard Sonata II: I. Allegretto pastorale 03:17
5. Keyboard Sonata II: II. Minuetto 00:55
6. Keyboard Sonata II: III. Presto 03:04
7. Keyboard Sonata III: I. Allegro ma non troppo 06:44
8. Keyboard Sonata III: II. Minuetto I & II 03:05
9. Keyboard Sonata III: III. Scherzo I & II 02:44
10. Keyboard Sonata IV: I. Allegro 01:48
11. Keyboard Sonata IV: II. Minuetto & Trio 02:21
12. Keyboard Sonata IV: III. Presto 03:14
13. Keyboard Sonata V: I. Tempo giusto 04:02
14. Keyboard Sonata V: II. Minuetto & Trio 02:45
15. Keyboard Sonata V: III. Polacca I & II 02:10
16. Keyboard Sonata V: IV. Presto, ma non troppo 04:30
17. Keyboard Sonata VI: I. Andantino e grazioso 03:29
18. Keyboard Sonata VI: II. Tempo di minuetto 01:02
19. Keyboard Sonata VI: III. Presto 03:12

Personnel:
Jenny Soonjin Kim, fortepiano

Please note: Tracks "13" are in 48kHz/24bit format.

foobar2000 1.3.7 / Dynamic Range Meter 1.1.1
log date: 2018-07-03 20:27:54

––––––––––––––––––––––––––––––––––––––––
Analyzed: Jenny Soonjin Kim / Doles: 6 Keyboard Sonatas
––––––––––––––––––––––––––––––––––––––––

DR Peak RMS Duration Track
––––––––––––––––––––––––––––––––––––––––
DR13 -9.13 dB -26.81 dB 4:45 01-Keyboard Sonata I: I. Allegro con brio
DR15 -1.65 dB -21.29 dB 4:10 02-Keyboard Sonata I: II. Adagio con espressione
DR14 -3.66 dB -20.40 dB 1:23 03-Keyboard Sonata I: III. Scherzando prestissimo
DR13 -6.42 dB -23.86 dB 3:17 04-Keyboard Sonata II: I. Allegretto pastorale
DR11 -6.66 dB -22.61 dB 0:55 05-Keyboard Sonata II: II. Minuetto
DR13 -4.57 dB -21.61 dB 3:04 06-Keyboard Sonata II: III. Presto
DR14 -1.89 dB -19.37 dB 6:44 07-Keyboard Sonata III: I. Allegro ma non troppo
DR14 -2.98 dB -20.83 dB 3:05 08-Keyboard Sonata III: II. Minuetto I & II
DR13 -4.50 dB -20.74 dB 2:44 09-Keyboard Sonata III: III. Scherzo I & II
DR13 -3.26 dB -19.95 dB 1:48 10-Keyboard Sonata IV: I. Allegro
DR13 -4.16 dB -21.50 dB 2:21 11-Keyboard Sonata IV: II. Minuetto & Trio
DR12 -5.30 dB -20.42 dB 3:14 12-Keyboard Sonata IV: III. Presto
DR13 -2.95 dB -20.90 dB 2:45 14-Keyboard Sonata V: II. Minuetto & Trio
DR13 -4.53 dB -21.44 dB 2:10 15-Keyboard Sonata V: III. Polacca I & II
DR13 -4.60 dB -20.86 dB 4:30 16-Keyboard Sonata V: IV. Presto, ma non troppo
DR13 -6.02 dB -22.60 dB 3:29 17-Keyboard Sonata VI: I. Andantino e grazioso
DR12 -3.64 dB -19.11 dB 1:02 18-Keyboard Sonata VI: II. Tempo di minuetto
DR13 -3.25 dB -20.54 dB 3:12 19-Keyboard Sonata VI: III. Presto
––––––––––––––––––––––––––––––––––––––––

Number of tracks: 18
Official DR value: DR13

Samplerate: 44100 Hz
Channels: 2
Bits per sample: 24
Bitrate: 1272 kbps
Codec: FLAC
================================================================================

––––––––––––––––––––––––––––––––––––––––
Statistics for: 13-Keyboard Sonata V: I. Tempo giusto
Number of samples: 11613521
Duration: 4:02
––––––––––––––––––––––––––––––––––––––––

Left Right

Peak Value: -4.25 dB –- -5.29 dB
Avg RMS: -21.85 dB –- -21.63 dB
DR channel: 14.15 dB –- 13.50 dB
––––––––––––––––––––––––––––––––––––––––

Official DR Value: DR14

Samplerate: 48000 Hz
Channels: 2
Bits per sample: 24
Bitrate: 1326 kbps
Codec: FLAC
================================================================================
SitemapElegant Solid Color Pointed Toe Heels | Watch now! | How to open Tubo c++ in Fullscreen in Windows Vista-7 Zeeshi